可大吖

1080P高清电影[私恋失调].2002.BluRay.1080p.DTS-HDMA5.1.x264-DreamHD 中文字幕/11.56GB

可大吖 2024-02-29 11 0
K4超清提供的1080P高清电影[私恋失调].2002.BluRay.1080p.DTS-HDMA5.1.x264-DreamHD 中文字幕/11.56GB下载地址来源于网络分享,网络资源均有时效性,请尽快下载1080P高清电影[私恋失调].2002.BluRay.1080p.DTS-HDMA5.1.x264-DreamHD 中文字幕/11.56GB,或保存1080P高清电影[私恋失调].2002.BluRay.1080p.DTS-HDMA5.1.x264-DreamHD 中文字幕/11.56GB到自己的网盘避免资源失效。

1080P高清电影[私恋失调].2002.BluRay.1080p.DTS-HDMA5.1.x264-DreamHD 中文字幕/11.56GB
◎标  题 私恋失调
◎译  名 拳击情缘 / 爱昏头 / 恋爱鸡尾酒 / 狂野之爱 / 百味情感 / 糊涂的爱
◎片  名 Punch-Drunk Love
◎年  代 2002
◎产  地 美国
◎类  别 剧情 / 喜剧 / 爱情
◎语  言 英语
◎上映日期 2002-11-01(美国)
◎IMDb评分 7.3/10 (169987人评价)
◎IMDb链接 https://www.imdb.com/title/tt0272338/
◎豆瓣评分 7.9/10 (14501人评价)
◎豆瓣链接 https://movie.douban.com/subject/1300211/
◎片  长 95分钟
◎导  演 保罗·托马斯·安德森 Paul Thomas Anderson
◎编  剧 保罗·托马斯·安德森 Paul Thomas Anderson
◎演  员 亚当·桑德勒 Adam Sandler
      艾米丽·沃森 Emily Watson
      菲利普·塞默·霍夫曼 Philip Seymour Hoffman
      路易斯·古兹曼 Luis Guzmán
      玛丽·莱恩·莱杰斯库 Mary Lynn Rajskub
      罗伯特·斯密戈尔 Robert Smigel
      Jason Andrews Jason Andrews
      Kerry Gelbard Kerry Gelbard
      Ross Lasi Tanoai Ross Lasi Tanoai
      Karen Kilgariff Karen Kilgariff

◎简  介
  单身汉Barry Egan(亚当·桑德勒 Adam Sandler 饰)经营着一家小工厂,生活在七个姐姐压力下的他会不时地哭泣、用暴力来发泄情绪,乱砸东西。这天他在路上捡回了一个被人丢弃的小钢琴,还认识了一个女子。原来这个女子正是他的一个姐姐想要介绍给他认识的Lena Leonard(艾米丽·沃森 Emily Watson 饰),两人相约改天一起吃晚餐。夜里寂寞无聊的Barry拨打了一个色情电话,和电话里的女郎聊的不亦乐乎,却也惹上了麻烦:女郎付不起房租跟他借钱被拒绝后,便不断打电话骚扰他。Barry和Lena第一次约会后,两人情投意合。然而当Barry回到家的时候,却遭到了一伙人的打劫,原来是经营色情电话公司的Dean(菲利普·塞默·霍夫曼 Philip Seymour Hoffman 饰)派来的。当Lena在夏威夷出差的时候,Barry更破天荒地去夏威夷寻找她,两人确立了恋爱关系。当那伙人再次开车撞了Barry的车时,Lena受伤了,Barry终于爆发了......
点击图片可查看大图
软字幕无法在截图上展现,HDR版本/杜比视界版本截图会出现颜色异常,请使用支持的设备播放!
1080P高清电影[私恋失调].2002.BluRay.1080p.DTS-HDMA5.1.x264-DreamHD 中文字幕/11.56GB1080P高清电影[私恋失调].2002.BluRay.1080p.DTS-HDMA5.1.x264-DreamHD 中文字幕/11.56GB1080P高清电影[私恋失调].2002.BluRay.1080p.DTS-HDMA5.1.x264-DreamHD 中文字幕/11.56GB1080P高清电影[私恋失调].2002.BluRay.1080p.DTS-HDMA5.1.x264-DreamHD 中文字幕/11.56GB1080P高清电影[私恋失调].2002.BluRay.1080p.DTS-HDMA5.1.x264-DreamHD 中文字幕/11.56GB1080P高清电影[私恋失调].2002.BluRay.1080p.DTS-HDMA5.1.x264-DreamHD 中文字幕/11.56GB##### MediaInfo ######
General
Unique ID : 314006868461393065701645473207580895468 (0xEC3B85E800491A52502E083C365828EC)
Complete name : PunchDrunk.Love.2002.BluRay.1080p.DTS-HDMA5.1.x264-DreamHD.mkv
Duration : 1 h 35 min
Overall bit rate mode : Variable
Overall bit rate : 17.4 Mb/s

Video
ID : 1
Format : AVC
Format/Info : Advanced Video Codec
Format profile : [email protected]
Format settings : CABAC / 5 Ref Frames
Format settings, CABAC : Yes
Format settings, Reference frames : 5 frames
Codec ID : V_MPEG4/ISO/AVC
Duration : 1 h 35 min
Bit rate : 15.2 Mb/s
Width : 1 920 pixels
Height : 816 pixels
Display aspect ratio : 2.35:1
Frame rate mode : Constant
Frame rate : 23.976 (24000/1001) FPS
Color space : YUV
Chroma subsampling : 4:2:0
Bit depth : 8 bits
Scan type : Progressive
Bits/(Pixel*Frame) : 0.405
Stream size : 10.1 GiB (87%)
Writing library : x264 core 161 r3018 db0d417
Encoding settings : cabac=1 / ref=5 / deblock=1:-3:-3 / analyse=0x3:0x133 / me=umh / subme=11 / psy=1 / psy_rd=1.00:0.00 / mixed_ref=1 / me_range=64 / chroma_me=1 / trellis=2 / 8x8dct=1 / cqm=0 / deadzone=21,11 / fast_pskip=0 / chroma_qp_offset=-2 / threads=25 / lookahead_threads=6 / sliced_threads=0 / nr=0 / decimate=0 / interlaced=0 / bluray_compat=0 / constrained_intra=0 / bframes=12 / b_pyramid=2 / b_adapt=2 / b_bias=0 / direct=3 / weightb=1 / open_gop=0 / weightp=2 / keyint=250 / keyint_min=23 / scenecut=40 / intra_refresh=0 / rc=crf / mbtree=0 / crf=18.0 / qcomp=0.70 / qpmin=0 / qpmax=69 / qpstep=4 / ip_ratio=1.30 / pb_ratio=1.20 / aq=3:0.80
Default : Yes
Forced : No
Color range : Limited
Color primaries : BT.709
Matrix coefficients : BT.709

Audio
ID : 2
Format : DTS XLL
Format/Info : Digital Theater Systems
Commercial name : DTS-HD Master Audio
Codec ID : A_DTS
Duration : 1 h 35 min
Bit rate mode : Variable
Bit rate : 2 159 kb/s
Channel(s) : 6 channels
Channel layout : C L R Ls Rs LFE
Sampling rate : 48.0 kHz
Frame rate : 93.750 FPS (512 SPF)
Bit depth : 16 bits
Compression mode : Lossless
Stream size : 1.43 GiB (12%)
Title : ENG
Language : English
Default : Yes
Forced : No

Text #1
ID : 3
Format : PGS
Muxing mode : zlib
Codec ID : S_HDMV/PGS
Codec ID/Info : Picture based subtitle format used on BDs/HD-DVDs
Duration : 1 h 26 min
Bit rate : 27.6 kb/s
Frame rate : 0.399 FPS
Count of elements : 2072
Stream size : 17.1 MiB (0%)
Title : CHT
Language : Chinese
Default : Yes
Forced : No

Text #2
ID : 4
Format : PGS
Muxing mode : zlib
Codec ID : S_HDMV/PGS
Codec ID/Info : Picture based subtitle format used on BDs/HD-DVDs
Duration : 1 h 34 min
Bit rate : 41.7 kb/s
Frame rate : 0.498 FPS
Count of elements : 2817
Stream size : 28.1 MiB (0%)
Title : ENG
Language : English
Default : No
Forced : No

Menu
00:00:00.000 : :第 01 章
00:07:30.033 : :第 02 章
00:15:41.858 : :第 03 章
00:22:05.824 : :第 04 章
00:29:21.385 : :第 05 章
00:41:39.789 : :第 06 章
00:43:13.049 : :第 07 章
00:48:50.344 : :第 08 章
00:54:53.582 : :第 09 章
00:57:25.609 : :第 10 章
01:00:48.353 : :第 11 章
01:07:12.570 : :第 12 章
01:11:10.850 : :第 13 章
01:15:52.840 : :第 14 章
01:20:43.881 : :第 15 章
01:23:56.281 : :第 16 章

部分资源为软字幕,移动端推荐播放器:MxPlayer,nPlayer,infuse ,其他播放器请自行尝试。
部分资源为软字幕,电脑端推荐播放器:PotPlayer,完美解码,KMPLAYER,其他播放器请自行尝试。

1080P高清电影[私恋失调].2002.BluRay.1080p.DTS-HDMA5.1.x264-DreamHD 中文字幕/11.56GB下载地址:

隐藏内容,请登录后查看

请先登录

回复 1080P高清电影[私恋失调].2002.BluRay.1080p.DTS-HDMA5.1.x264-DreamHD 中文字幕/11.56GB

VIP专属快捷回复:

失效支持高兴激动给力加油围观路过感动抢座
K4超清所有信息均由网友转载自互联网,没有存储任何形式的文件供下载,请下载试看后删除,请购买正版支持正版。本站内容如有侵权请联系:k42d.rr.nu, 我们会在收到您的邮件后立即删除!
主题数119972今日新增31昨日新增121
最新VIP

鑫之轩然 开通了 永久VIP
大门酷酷 开通了 永久VIP
云朵清脆 开通了 永久VIP
往事阔达哈哈 开通了 包月VIP
石头谦让 开通了 包月VIP
身影爱笑 开通了 永久VIP
未来尊敬 开通了 季度VIP
香水风中 开通了 包月VIP
鑫之轩然 开通了 永久VIP
大门酷酷 开通了 永久VIP

Copyright © 2023 K4超清 K4.CQE.CC 本站CDN由又拍云赞助
POWER BY CleenBB x3.4 PROCESSED: 15.8