小黄蜂

1080P高清电影[梦想情景].Dream.Scenario.2023.1080p.BluRay.x265.10bit-CTRLHD 中文字幕/5.47GB

小黄蜂 2024-02-29 78 0
K4超清提供的1080P高清电影[梦想情景].Dream.Scenario.2023.1080p.BluRay.x265.10bit-CTRLHD 中文字幕/5.47GB下载地址来源于网络分享,网络资源均有时效性,请尽快下载1080P高清电影[梦想情景].Dream.Scenario.2023.1080p.BluRay.x265.10bit-CTRLHD 中文字幕/5.47GB,或保存1080P高清电影[梦想情景].Dream.Scenario.2023.1080p.BluRay.x265.10bit-CTRLHD 中文字幕/5.47GB到自己的网盘避免资源失效。

1080P高清电影[梦想情景].Dream.Scenario.2023.1080p.BluRay.x265.10bit-CTRLHD 中文字幕/5.47GB
◎标  题 梦想情景
◎译  名 梦行者保罗(台) / 大叔梦中人(港)
◎片  名 Dream Scenario
◎年  代 2023
◎产  地 美国
◎类  别 剧情 / 喜剧
◎语  言 英语
◎上映日期 2023-09-09(多伦多电影节) / 2023-11-10(美国)
◎IMDb评分 7/10 (28950人评价)
◎IMDb链接 https://www.imdb.com/title/tt21942866/
◎豆瓣评分 6.8/10 (3688人评价)
◎豆瓣链接 https://movie.douban.com/subject/36076190/
◎片  长 102分钟
◎导  演 克里斯托弗·博格利 Kristoffer Borgli
◎编  剧 克里斯托弗·博格利 Kristoffer Borgli
◎演  员 尼古拉斯·凯奇 Nicolas Cage
      莉莉·伯德 Lily Bird
      朱丽安妮·尼科尔森 Julianne Nicholson
      杰西卡·克莱门特 Jessica Clement
      斯塔·斯莱德 Star Slade
      大卫·克莱因 David Klein
      卡莱布·霍恩 Kaleb Horn
      莉兹·阿吉 Liz Adjei
      宝拉·布德罗 Paula Boudreau
      马尼耶·麦克费尔 Marnie McPhail
      诺亚·拉曼纳 Noah Lamanna
      蒂姆·麦道斯 Tim Meadows
      迪伦·贝克 Dylan Baker
      梅芙·贝蒂 Maev Beaty
      马克·科波拉 Marc Coppola
      克里斯塔·布里吉斯 Krista Bridges
      康拉德·科茨 Conrad Coates
      玛妮·布伦顿 Marnie Brunton
      妮卡·埃利奥特 Nneka Elliott
      杰瑞米·莱维克 Jeremy Levick
      吉姆·阿姆斯特朗 Jim Armstrong
      本·卡德维尔 Ben Caldwell
      阿加佩·姆古米祖卢 Agape Mngomezulu
      斯蒂芬·R·哈特 Stephen R. Hart
      蕾雅·斯坦利 Leah Stanley
      索菲亚·班茨哈夫 Sofia Banzhaf
      阿尔·沃伦 Al Warren
      托马斯·米切尔 Thomas Mitchell
      迪兰·格鲁拉 Dylan Gelula
      迈克尔·塞拉 Michael Cera
      凯特·贝兰特 Kate Berlant
      卡勒布·威瑟毕 Caleb Weatherbee
      卡拉·沃科夫 Cara Volchoff
      格瑞·科恩 Greer Cohen
      詹姆斯·柯林斯 James Collins
      詹妮弗·威格莫尔 Jennifer Wigmore
      拉蒙娜·吉尔莫-达玲 Ramona Gilmour-Darling
      威尔·柯诺 Will Corno
      塔莉亚·施朗格 Talia Schlanger
      杰西-安·科赫曼 Jessie-Ann Kohlman
      奥尔顿·梅森 Alton Mason
      诺亚·琴蒂内奥 Noah Centineo
      乔什·理查德兹 Josh Richards
      安伯·明迪桑德 Amber Midthunder
      尼可拉斯·博朗 Nicholas Braun
      高莉莉 Lily Gao
      菲利普·范·马丁 Philip Van Martin
      理查德·朱特拉斯 Richard Jutras
      妮可·勒鲁 Nicole Leroux
      乔丹·拉夫 Jordan Raf
      多梅尼克·迪罗萨 Domenic Di Rosa

◎简  介
    Nicolas Cage饰演Paul Matthews,一个拥有终身教授头衔的平平无奇家庭男子,热爱进化生物学以及对自己的一事无成感到焦虑。有一天,他发现自己出现在别人的梦中。和生活中一样,他在这些梦中的存在是平庸和非侵入性的——他只是在那里,冷漠地盯着陌生人的幻想和噩梦。尽管如此,他一夜之间成为了一名名人,享受着爆火的洗礼。但是,保罗逐渐发现这是一个潘多拉的盒子,梦中的自己开始莫名思妙地变得暴力……
点击图片可查看大图
软字幕无法在截图上展现,HDR版本/杜比视界版本截图会出现颜色异常,请使用支持的设备播放!
1080P高清电影[梦想情景].Dream.Scenario.2023.1080p.BluRay.x265.10bit-CTRLHD 中文字幕/5.47GB1080P高清电影[梦想情景].Dream.Scenario.2023.1080p.BluRay.x265.10bit-CTRLHD 中文字幕/5.47GB1080P高清电影[梦想情景].Dream.Scenario.2023.1080p.BluRay.x265.10bit-CTRLHD 中文字幕/5.47GB1080P高清电影[梦想情景].Dream.Scenario.2023.1080p.BluRay.x265.10bit-CTRLHD 中文字幕/5.47GB1080P高清电影[梦想情景].Dream.Scenario.2023.1080p.BluRay.x265.10bit-CTRLHD 中文字幕/5.47GB1080P高清电影[梦想情景].Dream.Scenario.2023.1080p.BluRay.x265.10bit-CTRLHD 中文字幕/5.47GB##### MediaInfo ######
General
Unique ID : 143153608441520105576505439170730520468 (0x6BB261D240D8DFD68316837D1395EF94)
Complete name : Dream.Scenario.2023.1080p.BluRay.x265.10bit-CTRLHD.mkv
Duration : 1 h 41 min
Overall bit rate : 7 675 kb/s

Video
ID : 1
Format : HEVC
Format/Info : High Efficiency Video Coding
Format profile : Main 10@L5@Main
Codec ID : V_MPEGH/ISO/HEVC
Duration : 1 h 41 min
Bit rate : 7 033 kb/s
Width : 1 920 pixels
Height : 1 036 pixels
Display aspect ratio : 1.85:1
Frame rate mode : Constant
Frame rate : 23.976 (24000/1001) FPS
Color space : YUV
Chroma subsampling : 4:2:0
Bit depth : 10 bits
Bits/(Pixel*Frame) : 0.147
Stream size : 5.01 GiB (92%)
Default : Yes
Forced : No

Audio
ID : 2
Format : AC-3
Format/Info : Audio Coding 3
Commercial name : Dolby Digital
Format settings : Dolby Surround EX
Codec ID : A_AC3
Duration : 1 h 41 min
Bit rate mode : Constant
Bit rate : 640 kb/s
Channel(s) : 6 channels
Channel layout : L R C LFE Ls Rs
Sampling rate : 48.0 kHz
Frame rate : 31.250 FPS (1536 SPF)
Compression mode : Lossy
Stream size : 467 MiB (8%)
Language : English
Service kind : Complete Main
Default : Yes
Forced : No

Text
ID : 3
Format : UTF-8
Codec ID : S_TEXT/UTF8
Codec ID/Info : UTF-8 Plain Text
Duration : 1 h 39 min
Bit rate : 68 b/s
Frame rate : 0.295 FPS
Count of elements : 1764
Stream size : 50.1 KiB (0%)
Language : Chinese
Default : Yes
Forced : No

部分资源为软字幕,移动端推荐播放器:MxPlayer,nPlayer,infuse ,其他播放器请自行尝试。
部分资源为软字幕,电脑端推荐播放器:PotPlayer,完美解码,KMPLAYER,其他播放器请自行尝试。

1080P高清电影[梦想情景].Dream.Scenario.2023.1080p.BluRay.x265.10bit-CTRLHD 中文字幕/5.47GB下载地址:

隐藏内容,请登录后查看

请先登录

回复 1080P高清电影[梦想情景].Dream.Scenario.2023.1080p.BluRay.x265.10bit-CTRLHD 中文字幕/5.47GB

VIP专属快捷回复:

失效支持高兴激动给力加油围观路过感动抢座
K4超清所有信息均由网友转载自互联网,没有存储任何形式的文件供下载,请下载试看后删除,请购买正版支持正版。本站内容如有侵权请联系:k42d.rr.nu, 我们会在收到您的邮件后立即删除!
主题数119969今日新增28昨日新增121
最新VIP

鑫之轩然 开通了 永久VIP
大门酷酷 开通了 永久VIP
云朵清脆 开通了 永久VIP
往事阔达哈哈 开通了 包月VIP
石头谦让 开通了 包月VIP
身影爱笑 开通了 永久VIP
未来尊敬 开通了 季度VIP
香水风中 开通了 包月VIP
鑫之轩然 开通了 永久VIP
大门酷酷 开通了 永久VIP

Copyright © 2023 K4超清 K4.CQE.CC 本站CDN由又拍云赞助
POWER BY CleenBB x3.4 PROCESSED: 20