冷风

1080P高清电影[检阅日].2022.BluRay.REMUX.1080p.AVC.DTS-HD.MA5.1-DreamHD 特效字幕/18.89GB

冷风 2024-02-29 19 0
K4超清提供的1080P高清电影[检阅日].2022.BluRay.REMUX.1080p.AVC.DTS-HD.MA5.1-DreamHD 特效字幕/18.89GB下载地址来源于网络分享,网络资源均有时效性,请尽快下载1080P高清电影[检阅日].2022.BluRay.REMUX.1080p.AVC.DTS-HD.MA5.1-DreamHD 特效字幕/18.89GB,或保存1080P高清电影[检阅日].2022.BluRay.REMUX.1080p.AVC.DTS-HD.MA5.1-DreamHD 特效字幕/18.89GB到自己的网盘避免资源失效。

1080P高清电影[检阅日].2022.BluRay.REMUX.1080p.AVC.DTS-HD.MA5.1-DreamHD 特效字幕/18.89GB
◎标  题 检阅日
◎片  名 The Inspection
◎年  代 2022
◎产  地 美国
◎类  别 剧情 / 同性
◎语  言 英语
◎上映日期 2022-09-08(多伦多电影节) / 2022-11-18(美国)
◎IMDb评分 6.7/10 (4485人评价)
◎IMDb链接 https://www.imdb.com/title/tt13495458/
◎豆瓣评分 6.1/10 (767人评价)
◎豆瓣链接 https://movie.douban.com/subject/35545675/
◎片  长 95分钟
◎导  演 艾利根斯·布拉顿 Elegance Bratton
◎编  剧 艾利根斯·布拉顿 Elegance Bratton
◎演  员  杰里米·波普 Jeremy Pope
      劳尔·卡斯提洛 Raúl Castillo
      博基姆·伍德拜因 Bokeem Woodbine
      加布里埃尔·尤尼恩 Gabrielle Union
      麦考尔·隆巴蒂 McCaul Lombardi
      亚伦·多明格斯 Aaron Dominguez
      尼古拉斯·罗根 Nicholas Logan
      艾曼·埃斯凡迪 Eman Esfandi
      奥布里·约瑟夫 Aubrey Joseph
      安德鲁·卡伊 Andrew Kai
      温·赖克特 Wynn Reichert
      泰勒·梅里特 Tyler Merritt
      史蒂夫·莫卡特 Steve Mokate
      布拉德·纳普 Brad Napp
      丹尼尔·威廉森 Daniel Williamson

◎简  介
    讲述在“不问不说”的时代,无家可归的黑人男子埃利斯·弗伦奇加入了海军陆战队,他试图改变自己的生活,但为了在训练营中生存,他必须隐藏自己对训练教练的吸引力。
点击图片可查看大图
软字幕无法在截图上展现,HDR版本/杜比视界版本截图会出现颜色异常,请使用支持的设备播放!
1080P高清电影[检阅日].2022.BluRay.REMUX.1080p.AVC.DTS-HD.MA5.1-DreamHD 特效字幕/18.89GB1080P高清电影[检阅日].2022.BluRay.REMUX.1080p.AVC.DTS-HD.MA5.1-DreamHD 特效字幕/18.89GB1080P高清电影[检阅日].2022.BluRay.REMUX.1080p.AVC.DTS-HD.MA5.1-DreamHD 特效字幕/18.89GB1080P高清电影[检阅日].2022.BluRay.REMUX.1080p.AVC.DTS-HD.MA5.1-DreamHD 特效字幕/18.89GB1080P高清电影[检阅日].2022.BluRay.REMUX.1080p.AVC.DTS-HD.MA5.1-DreamHD 特效字幕/18.89GB1080P高清电影[检阅日].2022.BluRay.REMUX.1080p.AVC.DTS-HD.MA5.1-DreamHD 特效字幕/18.89GB##### MediaInfo ######
General
Unique ID : 265295825197203341646477728119246132995 (0xC7961E0D100F9D3BC8AC3466E3599703)
Complete name : The.Inspection.2022.BluRay.REMUX.1080p.AVC.DTS-HD.MA5.1-DreamHD.mkv
Duration : 1 h 34 min
Overall bit rate mode : Variable
Overall bit rate : 28.5 Mb/s

Video
ID : 1
ID in the original source medium : 4113 (0x1011)
Format : AVC
Format/Info : Advanced Video Codec
Format profile : [email protected]
Format settings : CABAC / 4 Ref Frames
Format settings, CABAC : Yes
Format settings, Reference frames : 4 frames
Codec ID : V_MPEG4/ISO/AVC
Duration : 1 h 34 min
Bit rate mode : Variable
Bit rate : 25.0 Mb/s
Maximum bit rate : 35.0 Mb/s
Width : 1 920 pixels
Height : 1 080 pixels
Display aspect ratio : 16:9
Frame rate mode : Constant
Frame rate : 23.976 (24000/1001) FPS
Standard : NTSC
Color space : YUV
Chroma subsampling : 4:2:0
Bit depth : 8 bits
Scan type : Progressive
Bits/(Pixel*Frame) : 0.503
Stream size : 16.6 GiB (88%)
Language : English
Default : No
Forced : No
Color range : Limited
Color primaries : BT.709
Transfer characteristics : BT.709
Matrix coefficients : BT.709
Original source medium : Blu-ray

Audio
ID : 2
ID in the original source medium : 4352 (0x1100)
Format : DTS XLL
Format/Info : Digital Theater Systems
Commercial name : DTS-HD Master Audio
Codec ID : A_DTS
Duration : 1 h 34 min
Bit rate mode : Variable
Bit rate : 3 390 kb/s
Channel(s) : 6 channels
Channel layout : C L R Ls Rs LFE
Sampling rate : 48.0 kHz
Frame rate : 93.750 FPS (512 SPF)
Bit depth : 24 bits
Compression mode : Lossless
Stream size : 2.25 GiB (12%)
Title : 环绕声 5.1
Language : English
Default : Yes
Forced : No
Original source medium : Blu-ray

Text #1
ID : 3
ID in the original source medium : 4608 (0x1200)
Format : PGS
Codec ID : S_HDMV/PGS
Codec ID/Info : Picture based subtitle format used on BDs/HD-DVDs
Duration : 1 h 34 min
Bit rate : 29.9 kb/s
Frame rate : 0.389 FPS
Count of elements : 2212
Stream size : 20.2 MiB (0%)
Language : English
Default : Yes
Forced : No
Original source medium : Blu-ray

Text #2
ID : 4
ID in the original source medium : 4610 (0x1202)
Format : PGS
Codec ID : S_HDMV/PGS
Codec ID/Info : Picture based subtitle format used on BDs/HD-DVDs
Duration : 1 h 29 min
Bit rate : 30.4 kb/s
Frame rate : 0.351 FPS
Count of elements : 1887
Stream size : 19.4 MiB (0%)
Language : Chinese
Default : No
Forced : No
Original source medium : Blu-ray

Text #3
ID : 5
ID in the original source medium : 4611 (0x1203)
Format : PGS
Codec ID : S_HDMV/PGS
Codec ID/Info : Picture based subtitle format used on BDs/HD-DVDs
Duration : 1 h 29 min
Bit rate : 17.7 kb/s
Frame rate : 0.351 FPS
Count of elements : 1887
Stream size : 11.3 MiB (0%)
Language : Chinese
Default : No
Forced : No
Original source medium : Blu-ray

Text #4
ID : 6
ID in the original source medium : 4612 (0x1204)
Format : PGS
Codec ID : S_HDMV/PGS
Codec ID/Info : Picture based subtitle format used on BDs/HD-DVDs
Duration : 1 h 29 min
Bit rate : 32.7 kb/s
Frame rate : 0.351 FPS
Count of elements : 1887
Stream size : 20.9 MiB (0%)
Language : Chinese
Default : No
Forced : No
Original source medium : Blu-ray

Text #5
ID : 7
ID in the original source medium : 4613 (0x1205)
Format : PGS
Codec ID : S_HDMV/PGS
Codec ID/Info : Picture based subtitle format used on BDs/HD-DVDs
Duration : 1 h 29 min
Bit rate : 20.0 kb/s
Frame rate : 0.351 FPS
Count of elements : 1887
Stream size : 12.8 MiB (0%)
Language : Chinese
Default : No
Forced : No
Original source medium : Blu-ray

Menu
00:00:00.000 : en:Chapter 01
00:09:19.559 : en:Chapter 02
00:19:02.516 : en:Chapter 03
00:29:30.810 : en:Chapter 04
00:35:43.808 : en:Chapter 05
00:45:07.413 : en:Chapter 06
00:56:43.274 : en:Chapter 07
01:02:39.547 : en:Chapter 08
01:09:04.932 : en:Chapter 09
01:14:59.244 : en:Chapter 10
01:19:28.764 : en:Chapter 11
01:28:22.297 : en:Chapter 12

部分资源为软字幕,移动端推荐播放器:MxPlayer,nPlayer,infuse ,其他播放器请自行尝试。
部分资源为软字幕,电脑端推荐播放器:PotPlayer,完美解码,KMPLAYER,其他播放器请自行尝试。

1080P高清电影[检阅日].2022.BluRay.REMUX.1080p.AVC.DTS-HD.MA5.1-DreamHD 特效字幕/18.89GB下载地址:

隐藏内容,请登录后查看

请先登录

回复 1080P高清电影[检阅日].2022.BluRay.REMUX.1080p.AVC.DTS-HD.MA5.1-DreamHD 特效字幕/18.89GB

VIP专属快捷回复:

失效支持高兴激动给力加油围观路过感动抢座
K4超清所有信息均由网友转载自互联网,没有存储任何形式的文件供下载,请下载试看后删除,请购买正版支持正版。本站内容如有侵权请联系:k42d.rr.nu, 我们会在收到您的邮件后立即删除!
主题数119972今日新增31昨日新增121
最新VIP

鑫之轩然 开通了 永久VIP
大门酷酷 开通了 永久VIP
云朵清脆 开通了 永久VIP
往事阔达哈哈 开通了 包月VIP
石头谦让 开通了 包月VIP
身影爱笑 开通了 永久VIP
未来尊敬 开通了 季度VIP
香水风中 开通了 包月VIP
鑫之轩然 开通了 永久VIP
大门酷酷 开通了 永久VIP

Copyright © 2023 K4超清 K4.CQE.CC 本站CDN由又拍云赞助
POWER BY CleenBB x3.4 PROCESSED: 16.1