弈星

1080P高清电影[无主之作].2012.BluRay.1080p.DTS-HD.MA.5.1.x264-DreamHD 中文字幕/10.30GB

弈星 2024-02-29 20 0
K4超清提供的1080P高清电影[无主之作].2012.BluRay.1080p.DTS-HD.MA.5.1.x264-DreamHD 中文字幕/10.30GB下载地址来源于网络分享,网络资源均有时效性,请尽快下载1080P高清电影[无主之作].2012.BluRay.1080p.DTS-HD.MA.5.1.x264-DreamHD 中文字幕/10.30GB,或保存1080P高清电影[无主之作].2012.BluRay.1080p.DTS-HD.MA.5.1.x264-DreamHD 中文字幕/10.30GB到自己的网盘避免资源失效。

1080P高清电影[无主之作].2012.BluRay.1080p.DTS-HD.MA.5.1.x264-DreamHD 中文字幕/10.30GB
◎标  题 无主之作
◎译  名 Never Look Away / Work Without Author
◎片  名 Werk ohne Autor
◎年  代 2018
◎产  地 德国 / 意大利
◎类  别 剧情
◎语  言 德语 / 俄语
◎上映日期 2018-09-04(威尼斯电影节) / 2018-10-03(德国)
◎IMDb评分 7.7/10 (24547人评价)
◎IMDb链接 https://www.imdb.com/title/tt5311542/
◎豆瓣评分 8.6/10 (82279人评价)
◎豆瓣链接 https://movie.douban.com/subject/26701196/
◎片  长 189分钟
◎导  演 弗洛里安·亨克尔·冯·多纳斯马尔克 Florian Henckel von Donnersmarck
◎编  剧 弗洛里安·亨克尔·冯·多纳斯马尔克 Florian Henckel von Donnersmarck
◎演  员 汤姆·希林 Tom Schilling
      塞巴斯蒂安·科赫 Sebastian Koch
      葆拉·贝尔 Paula Beer
      莎斯琪亚·罗森道尔 Saskia Rosendahl
      奥利弗·马苏奇 Oliver Masucci
      叶甫根尼·希迪金 Yevgeni Sidikhin
      马克·扎克 Mark Zak
      乌尔里克·C·扎勒 Ulrike C. Tscharre
      巴斯蒂安·特罗斯特 Bastian Trost
      汉斯-尤韦·鲍尔 Hans-Uwe Bauer
      汉诺·科夫勒 Hanno Koffler
      辛纳克·勋纳曼 Hinnerk Schönemann
      詹妮特·海因 Jeanette Hain
      乔切·舒托夫 Jörg Schüttauf
      约翰娜·加斯多夫 Johanna Gastdorf
      弗罗里安·巴西奥罗麦 Florian Bartholomäi
      本·贝克 Ben Becker
      伊娜·韦斯 Ina Weisse
      拉斯·艾丁格 Lars Eidinger
      雅各布·马琛茨 Jacob Matschenz
      皮特·布科夫斯基 Pit Bukowski
      赖纳·博克 Rainer Bock
      约翰尼斯·艾麦亚 Johannes Allmayer
      米凯拉·卡斯帕 Michaela Caspar
      吕克·费特 Luc Feit
      安东尼娅·比尔 Antonia Bill
      克里斯·泰辛格 Chris Theisinger
      尤·波斯 Jörg Pose
      阿克塞尔·旺克 Axel Wandtke
      卡伊·科尔斯 Cai Cohrs
      汉尼斯·赫尔曼 Hannes Hellmann
      伊嘉·比肯费尔德 Inga Birkenfeld
      斯特凡·梅伦 Stefan Mehren
      曼弗雷德·马克 Manfred Möck
      卢茨·布洛赫伯格 Lutz Blochberger
      马丁·布鲁赫曼 Martin Bruchmann
      乔纳斯·达斯勒 Jonas Dassler
      伊娃·玛丽亚·约斯特 Eva Maria Jost

◎简  介
    库尔特(汤姆·希林 Tom Schilling 饰)的姨母曾经被关进过集中营,最终在纳粹医生卡尔(塞巴斯蒂安·科赫 Sebastian Koch 饰)的折磨下不幸死去。虽然库尔特幸运的在柏林墙建成之前逃往了西德,但他的整个童年时代都生活在纳粹的阴影之下,这给他的人格带来了极大的创伤。   之后,库尔特进入了杜塞道夫美术学院就读,无法走出过去阴影的他将内心的绝望和伤痛都挥洒在了画布之上。一次偶然中,库尔特邂逅了名为艾利(葆拉·贝尔 Paula Beer 饰)的女孩,美丽活泼的艾利渐渐的治愈了库尔特内心的伤痕,当两人鼓起勇气想要将关系再推进一步时,却遭到了艾利父亲的强烈反对。
点击图片可查看大图
软字幕无法在截图上展现,HDR版本/杜比视界版本截图会出现颜色异常,请使用支持的设备播放!
1080P高清电影[无主之作].2012.BluRay.1080p.DTS-HD.MA.5.1.x264-DreamHD 中文字幕/10.30GB1080P高清电影[无主之作].2012.BluRay.1080p.DTS-HD.MA.5.1.x264-DreamHD 中文字幕/10.30GB1080P高清电影[无主之作].2012.BluRay.1080p.DTS-HD.MA.5.1.x264-DreamHD 中文字幕/10.30GB1080P高清电影[无主之作].2012.BluRay.1080p.DTS-HD.MA.5.1.x264-DreamHD 中文字幕/10.30GB1080P高清电影[无主之作].2012.BluRay.1080p.DTS-HD.MA.5.1.x264-DreamHD 中文字幕/10.30GB1080P高清电影[无主之作].2012.BluRay.1080p.DTS-HD.MA.5.1.x264-DreamHD 中文字幕/10.30GB##### MediaInfo ######
General
Unique ID : 5853060773954763995790561432219582840 (0x467422D2095FFFB9CD8C86CBF1E8178)
Complete name : Jan.Dara.Beginning.2012.BluRay.1080p.DTS-HD.MA.5.1.x264-DreamHD.mkv
Duration : 2 h 16 min
Overall bit rate mode : Variable
Overall bit rate : 10.8 Mb/s

Video
ID : 1
Format : AVC
Format/Info : Advanced Video Codec
Format profile : [email protected]
Format settings : CABAC / 4 Ref Frames
Format settings, CABAC : Yes
Format settings, Reference frames : 4 frames
Codec ID : V_MPEG4/ISO/AVC
Duration : 2 h 16 min
Bit rate : 9 000 kb/s
Width : 1 916 pixels
Height : 804 pixels
Display aspect ratio : 2.40:1
Frame rate mode : Constant
Frame rate : 24.000 FPS
Color space : YUV
Chroma subsampling : 4:2:0
Bit depth : 8 bits
Scan type : Progressive
Bits/(Pixel*Frame) : 0.243
Stream size : 8.57 GiB (83%)
Writing library : x264 core 157 r2867+150 7e91e0e t_mod_Custom_2 [8-bit@all X86_64]
Encoding settings : cabac=1 / ref=4 / deblock=1:-3:-3 / analyse=0x3:0x133 / me=umh / subme=11 / psy=1 / fade_compensate=0.00 / psy_rd=0.95:0.10 / mixed_ref=1 / me_range=48 / chroma_me=1 / trellis=2 / 8x8dct=1 / cqm=0 / deadzone=21,11 / fast_pskip=0 / chroma_qp_offset=-4 / threads=25 / lookahead_threads=4 / sliced_threads=0 / nr=0 / decimate=1 / interlaced=0 / bluray_compat=0 / constrained_intra=0 / fgo=0 / bframes=8 / b_pyramid=2 / b_adapt=2 / b_bias=0 / direct=3 / weightb=1 / open_gop=0 / weightp=2 / keyint=250 / keyint_min=24 / scenecut=40 / intra_refresh=0 / rc_lookahead=60 / rc=2pass / mbtree=0 / bitrate=9000 / ratetol=1.0 / qcomp=0.70 / qpmin=0:0:0 / qpmax=69:69:69 / qpstep=4 / cplxblur=20.0 / qblur=0.5 / vbv_maxrate=35000 / vbv_bufsize=35000 / nal_hrd=none / filler=0 / ip_ratio=1.40 / pb_ratio=1.30 / aq=3:1.00 / aq-sensitivity=10.00 / aq-factor=1.00:1.00:1.00 / aq2=0 / aq3=2:[0.50:0.50]:[0.50:0.50]:[0.50:0.50]:[0.50:0.50] / aq3-sensitivity=10.00 / aq3-factor=[1.00:1.00]:[1.00:1.00]:[1.00:1.00] / aq3-boundary=192:64:24
Default : Yes
Forced : No

Audio
ID : 2
Format : DTS XLL
Format/Info : Digital Theater Systems
Commercial name : DTS-HD Master Audio
Codec ID : A_DTS
Duration : 2 h 16 min
Bit rate mode : Variable
Bit rate : 1 688 kb/s
Channel(s) : 6 channels
Channel layout : C L R Ls Rs LFE
Sampling rate : 48.0 kHz
Frame rate : 93.750 FPS (512 SPF)
Bit depth : 16 bits
Compression mode : Lossless
Stream size : 1.61 GiB (16%)
Language : Thai
Default : Yes
Forced : No

Text #1
ID : 3
Format : PGS
Muxing mode : zlib
Codec ID : S_HDMV/PGS
Codec ID/Info : Picture based subtitle format used on BDs/HD-DVDs
Duration : 2 h 11 min
Bit rate : 28.2 kb/s
Frame rate : 0.307 FPS
Count of elements : 2422
Stream size : 26.5 MiB (0%)
Title : CHT 原盘
Language : Chinese
Default : Yes
Forced : No

Text #2
ID : 4
Format : PGS
Muxing mode : zlib
Codec ID : S_HDMV/PGS
Codec ID/Info : Picture based subtitle format used on BDs/HD-DVDs
Duration : 2 h 11 min
Bit rate : 44.0 kb/s
Frame rate : 0.294 FPS
Count of elements : 2320
Stream size : 41.3 MiB (0%)
Language : English
Default : Yes
Forced : No

Text #3
ID : 5
Format : PGS
Muxing mode : zlib
Codec ID : S_HDMV/PGS
Codec ID/Info : Picture based subtitle format used on BDs/HD-DVDs
Duration : 2 h 12 min
Bit rate : 34.3 kb/s
Frame rate : 0.441 FPS
Count of elements : 3516
Stream size : 32.5 MiB (0%)
Title : CHS 黑边
Language : Chinese
Default : Yes
Forced : No

Text #4
ID : 6
Format : PGS
Muxing mode : zlib
Codec ID : S_HDMV/PGS
Codec ID/Info : Picture based subtitle format used on BDs/HD-DVDs
Duration : 2 h 12 min
Bit rate : 34.7 kb/s
Frame rate : 0.441 FPS
Count of elements : 3516
Stream size : 33.0 MiB (0%)
Title : CHT 黑边
Language : Chinese
Default : Yes
Forced : No

Text #5
ID : 7
Format : PGS
Muxing mode : zlib
Codec ID : S_HDMV/PGS
Codec ID/Info : Picture based subtitle format used on BDs/HD-DVDs
Duration : 2 h 12 min
Bit rate : 34.1 kb/s
Frame rate : 0.441 FPS
Count of elements : 3516
Stream size : 32.4 MiB (0%)
Title : CHS 画面
Language : Chinese
Default : Yes
Forced : No

Text #6
ID : 8
Format : PGS
Muxing mode : zlib
Codec ID : S_HDMV/PGS
Codec ID/Info : Picture based subtitle format used on BDs/HD-DVDs
Duration : 2 h 12 min
Bit rate : 34.5 kb/s
Frame rate : 0.441 FPS
Count of elements : 3516
Stream size : 32.8 MiB (0%)
Title : CHT 画面
Language : Chinese
Default : Yes
Forced : No

Menu
00:00:00.000 : en:第 01 章
00:10:56.792 : en:第 02 章
00:22:14.625 : en:第 03 章
00:30:33.125 : en:第 04 章
00:41:27.583 : en:第 05 章
00:54:31.833 : en:第 06 章
01:00:23.500 : en:第 07 章
01:14:18.708 : en:第 08 章
01:21:26.167 : en:第 09 章
01:35:13.417 : en:第 10 章
01:45:10.875 : en:第 11 章
02:01:32.250 : en:第 12 章

部分资源为软字幕,移动端推荐播放器:MxPlayer,nPlayer,infuse ,其他播放器请自行尝试。
部分资源为软字幕,电脑端推荐播放器:PotPlayer,完美解码,KMPLAYER,其他播放器请自行尝试。

1080P高清电影[无主之作].2012.BluRay.1080p.DTS-HD.MA.5.1.x264-DreamHD 中文字幕/10.30GB下载地址:

隐藏内容,请登录后查看

请先登录

回复 1080P高清电影[无主之作].2012.BluRay.1080p.DTS-HD.MA.5.1.x264-DreamHD 中文字幕/10.30GB

VIP专属快捷回复:

失效支持高兴激动给力加油围观路过感动抢座
K4超清所有信息均由网友转载自互联网,没有存储任何形式的文件供下载,请下载试看后删除,请购买正版支持正版。本站内容如有侵权请联系:k42d.rr.nu, 我们会在收到您的邮件后立即删除!
主题数119972今日新增31昨日新增121
最新VIP

鑫之轩然 开通了 永久VIP
大门酷酷 开通了 永久VIP
云朵清脆 开通了 永久VIP
往事阔达哈哈 开通了 包月VIP
石头谦让 开通了 包月VIP
身影爱笑 开通了 永久VIP
未来尊敬 开通了 季度VIP
香水风中 开通了 包月VIP
鑫之轩然 开通了 永久VIP
大门酷酷 开通了 永久VIP

Copyright © 2023 K4超清 K4.CQE.CC 本站CDN由又拍云赞助
POWER BY CleenBB x3.4 PROCESSED: 17.7