吴双霜

[国英多音轨] 全网首发【百度网盘】克伦威尔 Cromwell.1970.1080p.BluRay.H264.2AC3- (国英双语中文字幕).mkv 2.87

吴双霜 2022-09-19 114 2
K4超清提供的[国英多音轨] 全网首发【百度网盘】克伦威尔 Cromwell.1970.1080p.BluRay.H264.2AC3- (国英双语中文字幕).mkv 2.87下载地址来源于网络分享,网络资源均有时效性,请尽快下载[国英多音轨] 全网首发【百度网盘】克伦威尔 Cromwell.1970.1080p.BluRay.H264.2AC3- (国英双语中文字幕).mkv 2.87,或保存[国英多音轨] 全网首发【百度网盘】克伦威尔 Cromwell.1970.1080p.BluRay.H264.2AC3- (国英双语中文字幕).mkv 2.87到自己的网盘避免资源失效。

视频于网络 央视国语音频私藏  调配蓝光 软字幕 30天期限

克伦威尔 Cromwell (1970)
主演: 理查德·哈里斯 / 亚历克·吉尼斯 / 罗伯特·莫利
类型: 剧情 / 传记 / 历史 / 战争
制片国家/地区: 英国
语言: 英语/央视国语
上映日期: 1970-07-16(英国)
片长: Argentina: 139 分钟 / USA: 139 分钟
又名: 镇国大将军 / 雄狮屠龙
克伦威尔的剧情简介 · · · · · ·
  展现了17世纪英国资产阶级革命(也可以说是世界历史)中最重要的一段历史时期,改革与保守势力之间的一场大决战。影片描述了奥利弗·克伦威尔推动并领导消弱专制王权、确立议会绝对权威斗争中的作用。从而最终奠定了延续至今的西方政体制度的基础。
Complete name                  : E:\克伦威尔 Cromwell.1970.1080p.BluRay.H264.2AC3- (国英双语).mkv
Format                         : Matroska
Format version                 : Version 4
File size                      : 2.88 GiB
Duration                       : 2 h 19 min
Overall bit rate               : 2 950 kb/s
Encoded date                   : UTC 2019-09-04 07:04:45
Writing application            : mkvmerge v7.5.0 ('Glass Culture') 32bit built on Jan  4 2015 16:37:25
Writing library                : libebml v1.3.1 + libmatroska v1.4.2
Video
ID                             : 1
Format                         : AVC
Format/Info                    : Advanced Video Codec
Format profile                 : High@L4.1
Format settings                : CABAC / 4 Ref Frames
Format settings, CABAC         : Yes
Format settings, Reference fra : 4 frames
Codec ID                       : V_MPEG4/ISO/AVC
Duration                       : 2 h 19 min
Bit rate                       : 2 500 kb/s
Width                          : 1 920 pixels
Height                         : 800 pixels
Display aspect ratio           : 2.40:1
Frame rate mode                : Constant
Frame rate                     : 23.976 (23976/1000) FPS
Color space                    : YUV
Chroma subsampling             : 4:2:0
Bit depth                      : 8 bits
Scan type                      : Progressive
Bits/(Pixel*Frame)             : 0.068
Stream size                    : 2.44 GiB (85%)
Writing library                : x264 core 152 r2851M ba24899
Audio #1
ID                             : 2
Format                         : AC-3
Format/Info                    : Audio Coding 3
Commercial name                : Dolby Digital
Codec ID                       : A_AC3
Duration                       : 2 h 19 min
Bit rate mode                  : Constant
Bit rate                       : 224 kb/s
Channel(s)                     : 2 channels
Channel layout                 : L R
Sampling rate                  : 48.0 kHz
Frame rate                     : 31.250 FPS (1536 SPF)
Bit depth                      : 16 bits
Compression mode               : Lossy
Delay relative to video        : -43 ms
Stream size                    : 224 MiB (8%)
Service kind                   : Complete Main
Default                        : Yes
Forced                         : No
Audio #2
ID                             : 3
Format                         : AC-3
Format/Info                    : Audio Coding 3
Commercial name                : Dolby Digital
Codec ID                       : A_AC3
Duration                       : 2 h 19 min
Bit rate mode                  : Constant
Bit rate                       : 224 kb/s
Channel(s)                     : 2 channels
Channel layout                 : L R
Sampling rate                  : 48.0 kHz
Frame rate                     : 31.250 FPS (1536 SPF)
Bit depth                      : 16 bits
Compression mode               : Lossy
Delay relative to video        : -43 ms
Stream size                    : 224 MiB (8%)
Service kind                   : Complete Main
Default                        : No
Forced                         : No
Text
ID                             : 4
Format                         : UTF-8
Codec ID                       : S_TEXT/UTF8
Codec ID/Info                  : UTF-8 Plain Text
Duration                       : 2 h 18 min
Bit rate                       : 53 b/s
Count of elements              : 1364
Stream size                    : 54.3 KiB (0%)
Default                        : Yes
Forced                         : No


https://pan.baidu.com/share/init?surl=eBB6Fl9MvJI2tUTtrhqK_w
隐藏内容,请登录后查看

  • 超帅水壶
    支持楼主,这个帖子对于我非常有用!
  • 小熊猫懦弱
    梦想肯定是要有的,万一摆脱单身了呢

请先登录

回复 [国英多音轨] 全网首发【百度网盘】克伦威尔 Cromwell.1970.1080p.BluRay.H264.2AC3- (国英双语中文字幕).mkv 2.87

VIP专属快捷回复:

失效支持高兴激动给力加油围观路过感动抢座
K4超清所有信息均由网友转载自互联网,没有存储任何形式的文件供下载,请下载试看后删除,请购买正版支持正版。本站内容如有侵权请联系:k42d.rr.nu, 我们会在收到您的邮件后立即删除!
主题数124694今日新增6昨日新增52
最新VIP

大象美好 开通了 包月VIP
心锁干净 开通了 包月VIP
洋葱落后 开通了 永久VIP
发带腼腆 开通了 包月VIP
龙腾 开通了 包月VIP
保温杯紧张 开通了 包月VIP
无言主 开通了 永久VIP
太阳落寞 开通了 包月VIP
大象美好 开通了 包月VIP
心锁干净 开通了 包月VIP

Copyright © 2023 K4超清 K4.CQE.CC 本站CDN由又拍云赞助
POWER BY CleenBB x3.4 PROCESSED: 82.7