小黄蜂

Web版4K电影[坚如磐石].Under.the.Light.2023.2160p.WEB-DL.H265.DDP-SONYHD 国语中字/4.85GB

小黄蜂 2023-12-20 2444 2
K4超清提供的Web版4K电影[坚如磐石].Under.the.Light.2023.2160p.WEB-DL.H265.DDP-SONYHD 国语中字/4.85GB下载地址来源于网络分享,网络资源均有时效性,请尽快下载Web版4K电影[坚如磐石].Under.the.Light.2023.2160p.WEB-DL.H265.DDP-SONYHD 国语中字/4.85GB,或保存Web版4K电影[坚如磐石].Under.the.Light.2023.2160p.WEB-DL.H265.DDP-SONYHD 国语中字/4.85GB到自己的网盘避免资源失效。

Web版4K电影[坚如磐石].Under.the.Light.2023.2160p.WEB-DL.H265.DDP-SONYHD 国语中字/4.85GB
◎标  题 坚如磐石
◎译  名 黑洞 / Under the Light
◎年  代 2023
◎产  地 中国大陆
◎类  别 剧情 / 动作 / 犯罪
◎语  言 汉语普通话
◎上映日期 2023-09-28(中国大陆)
◎IMDb评分 6.2/10 (303人评价)
◎IMDb链接 https://www.imdb.com/title/tt11448070/
◎豆瓣评分 6.3/10 (223212人评价)
◎豆瓣链接 https://movie.douban.com/subject/33447633/
◎片  长 127分钟
◎导  演 张艺谋 Yimou Zhang
◎编  剧 陈宇 Yu Chen
◎演  员 雷佳音 Jiayin Lei
      张国立 Guoli Zhang
      于和伟 Hewei Yu
      周冬雨 Dongyu Zhou
      孙艺洲 Yizhou Sun
      李乃文 Naiwen Li
      许亚军 Yajun Xu
      田雨 Yu Tian
      何政军 Zhengjun He
      徐子力 Zili Xu
      林博洋 Boyang Lin
      陈童 Tong Chen
      陈道明 Daoming Chen
      陈冲 Joan Chen
      王迅 Xun Wang
      赵亮 Liang Zhao
      焦刚 Gang Jiao
      楚布花羯 ChoBu HuaJe

◎简  介
    金江市副市长郑刚(张国立 饰)之子苏见明(雷佳音 饰)不顾父亲的劝阻,应邀赴约首富黎志田(于和伟 饰)的“鸿门宴”,不料却被迫观看了一出“人手下火锅”的猖狂戏码。旧案翻起,风雨欲来,各方蛰伏势力蠢蠢欲动,筹谋与算计、审视与怀疑,光怪陆离之中,人性欲望翻腾,谁将撕去最后的面具? ##### MediaInfo ######
General
Unique ID : 229111869959304082028404612867339424772 (0xAC5D575220AAC538A1D63B737B819404)
Complete name : 坚如磐石.Under.the.Light.2023.2160p.WEB-DL.H265.DDP5.1-SONYHD.mkv
Duration : 2 h 7 min
Overall bit rate : 5 424 kb/s

Video
ID : 1
Format : HEVC
Format/Info : High Efficiency Video Coding
Format profile : Main@L5@Main
Codec ID : V_MPEGH/ISO/HEVC
Duration : 2 h 7 min
Bit rate : 4 975 kb/s
Width : 3 840 pixels
Height : 1 440 pixels
Display aspect ratio : 2.667
Frame rate mode : Constant
Frame rate : 25.000 FPS
Color space : YUV
Chroma subsampling : 4:2:0
Bit depth : 8 bits
Bits/(Pixel*Frame) : 0.036
Stream size : 4.45 GiB (92%)
Default : Yes
Forced : No

Audio #1
ID : 2
Format : AAC LC
Format/Info : Advanced Audio Codec Low Complexity
Codec ID : A_AAC-2
Duration : 2 h 7 min
Bit rate : 192 kb/s
Channel(s) : 2 channels
Channel layout : L R
Sampling rate : 44.1 kHz
Frame rate : 43.066 FPS (1024 SPF)
Compression mode : Lossy
Stream size : 174 MiB (4%)
Language : Chinese
Default : No
Forced : No

Audio #2
ID : 3
Format : E-AC-3
Format/Info : Enhanced AC-3
Commercial name : Dolby Digital Plus
Codec ID : A_EAC3
Duration : 2 h 7 min
Bit rate mode : Constant
Bit rate : 256 kb/s
Channel(s) : 6 channels
Channel layout : L R C LFE Ls Rs
Sampling rate : 48.0 kHz
Frame rate : 31.250 FPS (1536 SPF)
Compression mode : Lossy
Stream size : 234 MiB (5%)
Language : Chinese
Service kind : Complete Main
Default : Yes
Forced : No


部分资源为软字幕,移动端推荐播放器:MxPlayer,nPlayer,infuse ,其他播放器请自行尝试。
部分资源为软字幕,电脑端推荐播放器:PotPlayer,完美解码,KMPLAYER,其他播放器请自行尝试。

Web版4K电影[坚如磐石].Under.the.Light.2023.2160p.WEB-DL.H265.DDP-SONYHD 国语中字/4.85GB下载地址:

隐藏内容,请登录后查看

  • 小黄蜂
    用浏览器下载种子文件,再用迅雷下载
  • 音响个性
    这个链接用什么工具下载

请先登录

回复 Web版4K电影[坚如磐石].Under.the.Light.2023.2160p.WEB-DL.H265.DDP-SONYHD 国语中字/4.85GB

VIP专属快捷回复:

失效支持高兴激动给力加油围观路过感动抢座
K4超清所有信息均由网友转载自互联网,没有存储任何形式的文件供下载,请下载试看后删除,请购买正版支持正版。本站内容如有侵权请联系:k42d.rr.nu, 我们会在收到您的邮件后立即删除!
主题数115361回复数99935用户数23015
最新VIP

摩托可靠 开通了 包月VIP
侠骨丹心 开通了 包月VIP
田雨 开通了 季度VIP
帆布鞋优美 开通了 包月VIP
双快猪 开通了 包月VIP
小白菜辛勤 开通了 包月VIP
吐司迷人 开通了 包月VIP
金针菇刻苦 开通了 包月VIP
摩托可靠 开通了 包月VIP
侠骨丹心 开通了 包月VIP

Copyright © 2023 K4超清 K4.CQE.CC 本站CDN由又拍云赞助
POWER BY CleenBB x3.4 PROCESSED: 15.5