可大吖

[左右格式] 【百度云】 火星救援 The Martian (2015) 【高码DTS 5.1声道英语+高品质AC3 5.1声道国语音轨】 (内置3D中英特效字幕) 17.5GB MKV格式

可大吖 2022-09-12 105 2
K4超清提供的[左右格式] 【百度云】 火星救援 The Martian (2015) 【高码DTS 5.1声道英语+高品质AC3 5.1声道国语音轨】 (内置3D中英特效字幕) 17.5GB MKV格式下载地址来源于网络分享,网络资源均有时效性,请尽快下载[左右格式] 【百度云】 火星救援 The Martian (2015) 【高码DTS 5.1声道英语+高品质AC3 5.1声道国语音轨】 (内置3D中英特效字幕) 17.5GB MKV格式,或保存[左右格式] 【百度云】 火星救援 The Martian (2015) 【高码DTS 5.1声道英语+高品质AC3 5.1声道国语音轨】 (内置3D中英特效字幕) 17.5GB MKV格式到自己的网盘避免资源失效。

火星救援 The Martian (2015)
导演: 雷德利·斯科特
编剧: 德鲁·高达 / 安迪·威尔
主演: 马特·达蒙 / 杰西卡·查斯坦 / 克里斯汀·韦格 / 杰夫·丹尼尔斯 / 迈克尔·佩纳 / 更多...
类型: 剧情 / 科幻 / 冒险
制片国家/地区: 美国 / 英国
语言: 英语 / 汉语普通话
上映日期: 2015-11-25(中国大陆) / 2015-10-02(美国)
片长: 144分钟 / 151分钟(加长版)
又名: 火星任务(港) / 绝地救援(台) / 火星人
IMDb链接: tt3659388
剧情简介 · · · · · ·
  载人航天宇宙飞船阿瑞斯3号成功抵达火星,谁知一场破坏力极其巨大的风暴向宇航员们袭来,阿瑞斯3号被迫中断任务,紧急返航。撤离途中,宇航员马克·沃特尼(马特·达蒙 Matt Damon 饰)被飞船上吹落的零件击中,由于生还希望渺茫,队友们只得匆匆返航,并向世人宣告他已牺牲的事实。出乎意料的是,马克以极低的概率活了下来。他躲进驻火星的航天基地疗伤。下一次火星任务要等到四年后,而基地内的补给仅够他维持31天。短暂的绝望后,马克决定利用有限的食物,在这颗空无一人的星球上种植作物,寻找一线生机。与此同时,地球方面也很快发现马克生还的事实,他们想尽办法部署营救计划。孤军奋战的马克,能否等到救援队伍的到来?
  影片改编自安迪·威尔的同名科幻小说。
文件信息
[火星救援].The.Martian.2015.3D.BluRay.1080p.HSBS.x264.DTS-HD.MA7.1-CMCT.mkv
Format                         : Matroska
Format version                 : Version 4 / Version 2
File size                      : 17.5 GiB
Duration                       : 2 h 21 min
Overall bit rate               : 17.7 Mb/s
Encoded date                   : UTC 2018-07-29 01:45:55
Writing application            : mkvmerge v25.0.0 ('Prog Noir') 64-bit
Writing library                : libebml v1.3.6 + libmatroska v1.4.9
Attachments                    : cronospro.otf / hwkaiti.ttf
Video
ID                             : 1
Format                         : AVC
Format/Info                    : Advanced Video Codec
Format profile                 : High@L4.1
Format settings, CABAC         : Yes
Format settings, ReFrames      : 4 frames
Codec ID                       : V_MPEG4/ISO/AVC
Duration                       : 2 h 21 min
Bit rate                       : 12.0 Mb/s
Width                          : 1 920 pixels
Height                         : 1 080 pixels
Display aspect ratio           : 16:9
Frame rate mode                : Constant
Frame rate                     : 23.976 (24000/1001) FPS
Color space                    : YUV
Chroma subsampling             : 4:2:0
Bit depth                      : 8 bits
Scan type                      : Progressive
Bits/(Pixel*Frame)             : 0.241
Stream size                    : 11.9 GiB (68%)
Title                          : 六牛@CMCT
Writing library                : x264 core 146 r2538 121396c
Default                        : Yes
Forced                         : No
Audio #1
ID                             : 2
Format                         : DTS
Format/Info                    : Digital Theater Systems
Format profile                 : MA / Core
Mode                           : 16
Format settings, Endianness    : Big
Codec ID                       : A_DTS
Duration                       : 2 h 21 min
Bit rate mode                  : Variable / Constant
Bit rate                       : 4 997 kb/s / 1 509 kb/s
Channel(s)                     : 8 channels / 6 channels
Channel positions              : Front: L C R, Side: L R, Back: L R, LFE / Front: L C R, Side: L R, LFE
Sampling rate                  : 48.0 kHz
Frame rate                     : 93.750 FPS (512 spf)
Bit depth                      : 24 bits
Compression mode               : Lossless / Lossy
Stream size                    : 4.94 GiB (28%)
Title                          : 英语
Default                        : No
Forced                         : No
Audio #2
ID                             : 5
Format                         : AC-3
Format/Info                    : Audio Coding 3
Format settings, Endianness    : Big
Codec ID                       : A_AC3
Duration                       : 2 h 21 min
Bit rate mode                  : Constant
Bit rate                       : 640 kb/s
Channel(s)                     : 6 channels
Channel positions              : Front: L C R, Side: L R, LFE
Sampling rate                  : 48.0 kHz
Frame rate                     : 31.250 FPS (1536 spf)
Bit depth                      : 16 bits
Compression mode               : Lossy
Stream size                    : 648 MiB (4%)
Title                          : 国语
Language                       : Chinese
Service kind                   : Complete Main
Default                        : Yes
Forced                         : No
Text #1
ID                             : 3
Format                         : ASS
Codec ID                       : S_TEXT/ASS
Codec ID/Info                  : Advanced Sub Station Alpha
Duration                       : 2 h 16 min
Bit rate                       : 572 b/s
Count of elements              : 3798
Compression mode               : Lossless
Stream size                    : 573 KiB (0%)
Title                          : 中英3D
Language                       : Chinese
Default                        : Yes
Forced                         : No
Text #2
ID                             : 4
Format                         : ASS
Codec ID                       : S_TEXT/ASS
Codec ID/Info                  : Advanced Sub Station Alpha
Duration                       : 2 h 16 min
Bit rate                       : 305 b/s
Count of elements              : 3798
Compression mode               : Lossless
Stream size                    : 306 KiB (0%)
Title                          : 简体3D
Language                       : Chinese
Default                        : No
请下载后删除.pdf扩展名,并解压缩。
https://pan.baidu.com/share/init?surl=h1XhCdFrDSdlgw2LC3GaaA
隐藏内容,请登录后查看

本主题由 admin 于 2022-9-12 20:04 审核通过
  • 皮带尊敬
    加油加油,多发一些这样的好资源!
  • 感动楼房
    资源过于经典,我已无法呼吸!

请先登录

回复 [左右格式] 【百度云】 火星救援 The Martian (2015) 【高码DTS 5.1声道英语+高品质AC3 5.1声道国语音轨】 (内置3D中英特效字幕) 17.5GB MKV格式

VIP专属快捷回复:

失效支持高兴激动给力加油围观路过感动抢座
K4超清所有信息均由网友转载自互联网,没有存储任何形式的文件供下载,请下载试看后删除,请购买正版支持正版。本站内容如有侵权请联系:k42d.rr.nu, 我们会在收到您的邮件后立即删除!
主题数124993今日新增0昨日新增11
最新VIP

帽子平常 开通了 包月VIP
模范时代 开通了 包月VIP
凉面落寞 开通了 永久VIP
红牛柔弱 开通了 包月VIP
七七八八 开通了 包月VIP
芹菜顺利 开通了 包月VIP
风起长林 开通了 包月VIP
蓝天俊秀 开通了 包月VIP
帽子平常 开通了 包月VIP
模范时代 开通了 包月VIP

Copyright © 2023 K4超清 K4.CQE.CC 本站CDN由又拍云赞助
POWER BY CleenBB x3.4 PROCESSED: 50.6